Video

Lotus In Fish Ponds 2 (Stock Footage)

Lotus In Fish Ponds 2 (Stock Footage)

Lotus In Fish Ponds 2 4K Video Down Scale to 1920×1080 , 29.97P

Details

Video Encoding : Photo JPEG Codec ID : qt File size : 452 MiB Duration : 25s 25ms Overall bit rate mode : Variable Overall bit rate : 152 Mbps

Video Format : JPEG Codec ID : jpeg Duration : 25s 25ms Bit rate mode : Variable Bit rate : 150 Mbps Width : 1 920 pixels Height : 1 080 pixels Display aspect ratio : 16:9 Frame rate mode : Constant Frame rate : 29.970 fps Color space : YUV Chroma subsampling : 4:2:2 Bit depth : 8 bits Compression mode : Lossy Bits/(Pixel*Frame) : 2.415 Stream size : 448 MiB (99%)

Audio Format : PCM Format settings, Endianness : Little Format settings, Sign : Signed Codec ID : sowt Duration : 25s 25ms Bit rate mode : Constant Bit rate : 1 536 Kbps Channel(s) : 2 channels Channel positions : Front: L R Sampling rate : 48.0 KHz Bit depth : 16 bits Stream size : 4.58 MiB (1%)

by
by
by
by
by
by