Video

Dragonfly 5 (Stock Footage)

Dragonfly 5 (Stock Footage)

Dragonfly 5 Pack 2 Video

High quality 1920×1080 59.94p

Details

Clip 1 Video Encoding : Photo JPEG Codec ID : qt File size : 547 MiB Duration : 25s 25ms Overall bit rate mode : Variable Overall bit rate : 183 Mbps

Video Format : JPEG Codec ID : jpeg Duration : 25s 25ms Bit rate mode : Variable Bit rate : 182 Mbps Width : 1 920 pixels Height : 1 080 pixels Display aspect ratio : 16:9 Frame rate mode : Constant Frame rate : 59.940 fps Color space : YUV Chroma subsampling : 4:2:2 Bit depth : 8 bits Compression mode : Lossy Bits/(PixelFrame) : 1.464 Stream size : 543 MiB (99%)

Audio Format : PCM Format settings, Endianness : Little Format settings, Sign : Signed Codec ID : sowt Duration : 25s 25ms Bit rate mode : Constant Bit rate : 1 536 Kbps Channel(s) : 2 channels Channel positions : Front: L R Sampling rate : 48.0 KHz Bit depth : 16 bits Stream size : 4.58 MiB (1%)

Clip 2 Video Encoding : Photo JPEG Codec ID : qt File size : 482 MiB Duration : 20s 20ms Overall bit rate mode : Variable Overall bit rate : 202 Mbps

Video Format : JPEG Codec ID : jpeg Duration : 20s 20ms Bit rate mode : Variable Bit rate : 200 Mbps Width : 1 920 pixels Height : 1 080 pixels Display aspect ratio : 16:9 Frame rate mode : Constant Frame rate : 59.940 fps Color space : YUV Chroma subsampling : 4:2:2 Bit depth : 8 bits Compression mode : Lossy Bits/(PixelFrame) : 1.612 Stream size : 478 MiB (99%)

Audio Format : PCM Format settings, Endianness : Little Format settings, Sign : Signed Codec ID : sowt Duration : 20s 20ms Bit rate mode : Constant Bit rate : 1 536 Kbps Channel(s) : 2 channels Channel positions : Front: L R Sampling rate : 48.0 KHz Bit depth : 16 bits Stream size : 3.67 MiB (1%)

by
by
by
by
by
by