Video

Dragonfly 2 (Stock Footage)

Dragonfly 2 (Stock Footage)

Dragonfly

FHD 1920×1080 , 59.94p

Video Encoding : Photo JPEG Codec ID : qt File size : 598 MiB Duration : 30s 30ms Overall bit rate mode : Variable Overall bit rate : 167 Mbps

Video Format : JPEG Codec ID : jpeg Duration : 30s 30ms Bit rate mode : Variable Bit rate : 165 Mbps Width : 1 920 pixels Height : 1 080 pixels Display aspect ratio : 16:9 Frame rate mode : Constant Frame rate : 59.940 fps Color space : YUV Chroma subsampling : 4:2:2 Bit depth : 8 bits Compression mode : Lossy Bits/(Pixel*Frame) : 1.331 Stream size : 592 MiB (99%)

Audio

Format : PCM Format settings, Endianness : Little Format settings, Sign : Signed Codec ID : sowt Duration : 30s 30ms Bit rate mode : Constant Bit rate : 1 536 Kbps Channel(s) : 2 channels Channel positions : Front: L R Sampling rate : 48.0 KHz Bit depth : 16 bits Stream size : 5.50 MiB (1%)

by
by
by
by
by
by